SN

News & Updates
Premiumzugang
Hilfe (FAQ)
Kontakt
Board
Partner
RSS Feeds


Die Top 100
Die Letzten 100


- CUE Source

Einträge: 34.670
Files: 114.207
Online: 7,99 TB
Mirrors: 18,39 TB

01. Toolbase Hacking
02. Dose of Porn
03. DeutschRap.org
04. Movie-Blog.ORG
05. LinkR.top
06. ZehnPorn
07. xLinkz
08. Querverweis.net
09. PornShare.biz
10. uscene.net
11. .....BestOfLinks
12. Amateur-Fickerei
13. Mov-World.net
14. HD-Load.org
15. BestOfLinks.NET
16. Game-Blog.us
17. Your-Bitch.com
18. BollyWoods.tk
19. SKY-PoRN V3
20. Dark-Linkz.in
21. Doku24HD
22. Full Downloadz
23. Deutschrap Alben
24. DDL-Share.biz
25. .....cine.do.am.
26. Horzta TV
27. UgeNews.net
28. Link-Base.org
29. Free Live Sex
30. Deluxe Flavor
31. CRUNKWAREZ.com
32. jokermovie
33. Saugking.net
34. CHiLi-WarEz.net
35. MyGratis XXX
36. OneLoad.org
37. Deluxe-Soundz
38. BestOfPorn.us
39. German WAREZ
40. Emu Spiele Blog
41. Dein Link
42. Dein Link
43. Dein Link
44. Dein Link
45. Dein Link
46. Dein Link
47. Dein Link
48. Dein Link
49. Dein Link
50. Dein Link
51. Dein Link
52. Dein Link
53. Dein Link
54. Dein Link
55. Dein Link
56. Dein Link
57. Dein Link
58. Dein Link
59. Dein Link
60. Dein Link


Partner werden
Alle Partner




November 2017
Oktober 2017
September 2017
August 2017
Juli 2017
Juni 2017
Mai 2017
April 2017
März 2017
Februar 2017
Januar 2017
Dezember 2016

Wu-Tang Clan - Enter the Wu Tang (36 Chambers) (Lossless) (1993)

Not Rated

Cover: Wu-Tang Clan - Enter the Wu Tang (36 Chambers) (Lossless) (1993)

Kategorie: International Rap / RnB » Alben / Sampler

Release:

Interpret:

Release Jahr: 1993

Eingetragen: 08.03.16 21:04

Sprache: Englisch

Größe: 298 MB

CDs: 1

Hits: 2.714

Uploader: LuckySun

Passwort:

URL:


Beschreibung:
Tracklist

01 Bring Da Ruckus
02 Shame On A Nigga
03 Clan In Da Front
04 Wu-Tang: 7th Chamber
05 Can It Be All So Simple
06 Protect Ya Neck (Intermission)
07 Wu-Tang Sword
08 Da Mystery Of Chessboxin'
09 Wu-Tang Clan Ain't Nuthing Ta F' Wit
10 C.R.E.A.M.
11 Method Man
12 Tearz
13 Wu-Tang: 7th Chamber - Part II
14 Conclusion


Schneller Downloaden? Mehr Stuff? Und das ganze Kostenlos? Dann ab zu Usenet.NL!

Wu-Tang Clan - Enter the Wu Tang (36 Chambers) (Lossless) (1993) jetzt mit Higspeed bei Usenet.NL laden! Besser & schneller als Rapidshare! Jetzt anmelden und mit 25Mbits/sec saugen was die Leitung her gibt.


Download (Ul.to, eine Url)

Status: unbekannt

Bitte gebe den Sicherheitscode korrekt ein, um zum Download zu gelangen.
Falls du die Zeichen nicht erkennen kannst, aktualisiere die Seite.

Hat der Download funktioniert? Dann Vote für Fettrap für ein guten Platz in der Toplist. CLICK HERE

Mirror #Highspeed (Usenet.NL, eine URL)

Status: Online

Bitte gebe den Sicherheitscode korrekt ein, um zum Download zu gelangen.
Falls du die Zeichen nicht erkennen kannst, aktualisiere die Seite.

Hat der Download funktioniert? Dann Vote für Fettrap für ein guten Platz in der Toplist. CLICK HERE

NFO

Exact Audio Copy V1.1 from 23. June 2015

EAC extraction logfile from 6. March 2016, 16:51

Wu-Tang Clan / Enter The Wu-Tang (36 Chambers) [Bonus Track]

Used drive  : TSSTcorpDVDWBD SH-B123L   Adapter: 1  ID: 0

Read mode : Burst

Read offset correction                      : 6
Overread into Lead-In and Lead-Out          : No
Fill up missing offset samples with silence : Yes
Delete leading and trailing silent blocks   : No
Null samples used in CRC calculations       : Yes
Used interface                              : Native Win32 interface for Win NT & 2000
Gap handling                                : Appended to previous track

Used output format              : User Defined Encoder
Selected bitrate                : 896 kBit/s
Quality                         : High
Add ID3 tag                     : No
Command line compressor         : C:\Program Files (x86)\Exact Audio Copy\Flac\flac.exe
Additional command line options : -5 -T "ALBUM=%albumtitle%" -T "ALBUMARTIST=%albumartist%" -T "DATE=%year%" -T "GENRE=%genre%" -T "COMMENT=%comment%" -T "DISCTOTAL=%totalcds%" -T "DISCNUMBER=%cdnumber%" -T "TRACKTOTAL=%numtracks%" -T "TRACKNUMBER=%tracknr%" -T "TITLE=%title%" -T "ARTIST=%artist%" -T "COMPOSER=%composer%" %haslyrics%--tag-from-file=LYRICS="%lyricsfile%"%haslyrics% %hascover%--picture="%coverfile%"%hascover% %source% -o %dest%


TOC of the extracted CD

     Track |   Start  |  Length  | Start sector | End sector 
    ---------------------------------------------------------
        1  |  0:00.00 |  4:11.20 |         0    |    18844   
        2  |  4:11.20 |  2:57.17 |     18845    |    32136   
        3  |  7:08.37 |  4:33.18 |     32137    |    52629   
        4  | 11:41.55 |  6:06.62 |     52630    |    80141   
        5  | 17:48.42 |  6:52.73 |     80142    |   111114   
        6  | 24:41.40 |  4:47.37 |    111115    |   132676   
        7  | 29:29.02 |  3:36.03 |    132677    |   148879   
        8  | 33:05.05 |  4:12.02 |    148880    |   167781   
        9  | 37:17.07 |  5:50.48 |    167782    |   194079   
       10  | 43:07.55 |  4:51.20 |    194080    |   215924   
       11  | 47:59.00 |  4:17.57 |    215925    |   235256   
       12  | 52:16.57 |  5:08.68 |    235257    |   258424   
       13  | 57:25.50 |  3:09.22 |    258425    |   272621   
       14  | 60:34.72 |  1:00.40 |    272622    |   277161   


Track  1

     Filename D:\Wu-Tang2Wu-Tang Clan\FLAC\Wu-Tang Clan\[1993] Enter The Wu-Tang (36 Chambers) [Bonus Track]\01. Bring Da Ruckus.wav

     Pre-gap length  0:00:02.00

     Peak level 95.9 %
     Extraction speed 17.5 X
     Test CRC D95993AD
     Copy CRC D95993AD
     Accurately ripped (confidence 49)  [5718A84C]  (AR v2)
     Copy OK

Track  2

     Filename D:\Wu-Tang2Wu-Tang Clan\FLAC\Wu-Tang Clan\[1993] Enter The Wu-Tang (36 Chambers) [Bonus Track]\02. Shame On A Nigga.wav

     Peak level 95.9 %
     Extraction speed 19.2 X
     Test CRC DD495038
     Copy CRC DD495038
     Accurately ripped (confidence 46)  [816F1833]  (AR v2)
     Copy OK

Track  3

     Filename D:\Wu-Tang2Wu-Tang Clan\FLAC\Wu-Tang Clan\[1993] Enter The Wu-Tang (36 Chambers) [Bonus Track]\03. Clan In Da Front.wav

     Peak level 95.9 %
     Extraction speed 21.0 X
     Test CRC CEEB5A44
     Copy CRC CEEB5A44
     Accurately ripped (confidence 47)  [03FBB76B]  (AR v2)
     Copy OK

Track  4

     Filename D:\Wu-Tang2Wu-Tang Clan\FLAC\Wu-Tang Clan\[1993] Enter The Wu-Tang (36 Chambers) [Bonus Track]\04. Wu-Tang- 7th Chamber.wav

     Peak level 95.9 %
     Extraction speed 23.2 X
     Test CRC 1311DB9B
     Copy CRC 1311DB9B
     Accurately ripped (confidence 45)  [521BBDFD]  (AR v2)
     Copy OK

Track  5

     Filename D:\Wu-Tang2Wu-Tang Clan\FLAC\Wu-Tang Clan\[1993] Enter The Wu-Tang (36 Chambers) [Bonus Track]\05. Can It Be All So Simple , Intermission.wav

     Pre-gap length  0:00:01.72

     Timing problem 0:01:24

     Peak level 95.9 %
     Extraction speed 21.4 X
     Test CRC E48F5EC2
     Copy CRC E48F5EC2
     Accurately ripped (confidence 48)  [D6FF7C5E]  (AR v2)
     Copy finished

Track  6

     Filename D:\Wu-Tang2Wu-Tang Clan\FLAC\Wu-Tang Clan\[1993] Enter The Wu-Tang (36 Chambers) [Bonus Track]\06. Da Mystery Of Chessboxin'.wav

     Peak level 89.5 %
     Extraction speed 27.6 X
     Test CRC 2D9DFEAD
     Copy CRC 2D9DFEAD
     Accurately ripped (confidence 45)  [ADFB50D4]  (AR v2)
     Copy OK

Track  7

     Filename D:\Wu-Tang2Wu-Tang Clan\FLAC\Wu-Tang Clan\[1993] Enter The Wu-Tang (36 Chambers) [Bonus Track]\07. Wu-Tang Clan Ain't Nuthing Ta F' Wit.wav

     Peak level 95.9 %
     Extraction speed 28.8 X
     Test CRC C61C1B09
     Copy CRC C61C1B09
     Accurately ripped (confidence 48)  [C9306C1D]  (AR v2)
     Copy OK

Track  8

     Filename D:\Wu-Tang2Wu-Tang Clan\FLAC\Wu-Tang Clan\[1993] Enter The Wu-Tang (36 Chambers) [Bonus Track]\08. C.R.E.A.M..wav

     Peak level 95.9 %
     Extraction speed 30.1 X
     Test CRC B0DC68FF
     Copy CRC B0DC68FF
     Accurately ripped (confidence 45)  [8DE5CDE0]  (AR v2)
     Copy OK

Track  9

     Filename D:\Wu-Tang2Wu-Tang Clan\FLAC\Wu-Tang Clan\[1993] Enter The Wu-Tang (36 Chambers) [Bonus Track]\09. Method Man.wav

     Peak level 60.5 %
     Extraction speed 31.6 X
     Test CRC F020DADC
     Copy CRC F020DADC
     Accurately ripped (confidence 45)  [688AEED1]  (AR v2)
     Copy OK

Track 10

     Filename D:\Wu-Tang2Wu-Tang Clan\FLAC\Wu-Tang Clan\[1993] Enter The Wu-Tang (36 Chambers) [Bonus Track]\10. Protect Ya Neck.wav

     Peak level 95.9 %
     Extraction speed 26.1 X
     Test CRC 02253F1D
     Copy CRC 509791FA
     Cannot be verified as accurate (confidence 59)  [13BE715D], AccurateRip returned [A4F24995]  (AR v2)
     Copy OK

Track 11

     Filename D:\Wu-Tang2Wu-Tang Clan\FLAC\Wu-Tang Clan\[1993] Enter The Wu-Tang (36 Chambers) [Bonus Track]\11. Tearz.wav

     Peak level 95.9 %
     Extraction speed 26.9 X
     Test CRC 9A46337C
     Copy CRC 9A46337C
     Accurately ripped (confidence 46)  [064BD0C3]  (AR v2)
     Copy OK

Track 12

     Filename D:\Wu-Tang2Wu-Tang Clan\FLAC\Wu-Tang Clan\[1993] Enter The Wu-Tang (36 Chambers) [Bonus Track]\12. Wu-Tang- 7th Chamber - Part II.wav

     Peak level 76.2 %
     Extraction speed 28.0 X
     Test CRC 61D08345
     Copy CRC 61D08345
     Accurately ripped (confidence 46)  [238CF7C9]  (AR v2)
     Copy OK

Track 13

     Filename D:\Wu-Tang2Wu-Tang Clan\FLAC\Wu-Tang Clan\[1993] Enter The Wu-Tang (36 Chambers) [Bonus Track]\13. Method Man (Skunk Mix).wav

     Pre-gap length  0:00:00.25

     Peak level 76.2 %
     Extraction speed 28.7 X
     Test CRC 9A012237
     Copy CRC 9A012237
     Accurately ripped (confidence 46)  [38C7ACB8]  (AR v2)
     Copy OK

Track 14

     Filename D:\Wu-Tang2Wu-Tang Clan\FLAC\Wu-Tang Clan\[1993] Enter The Wu-Tang (36 Chambers) [Bonus Track]\14. Conclusion.wav

     Peak level 65.9 %
     Extraction speed 28.8 X
     Test CRC 64C21BFE
     Copy CRC 64C21BFE
     Accurately ripped (confidence 46)  [0D85580D]  (AR v2)
     Copy OK


13 Track(s) akkurat gelesen
 1 Track(s) nicht als akkurat verifiziert

Some tracks could not be verified as accurate

No errors occurred

End of status report

---- CUETools DB Plugin V2.1.6

[CTDB TOCID: 84FyrlMPcl5l5G1fL2xlG4p7iUU-] found
Submit result: insufficient quality
Track | CTDB Status
  1   | (281/285) Accurately ripped
  2   | (281/285) Accurately ripped
  3   | (283/285) Accurately ripped
  4   | (280/285) Accurately ripped
  5   | (281/285) Accurately ripped
  6   | (280/285) Accurately ripped
  7   | (280/285) Accurately ripped
  8   | (275/285) Accurately ripped
  9   | (283/285) Accurately ripped
 10   | (270/285) Differs in 1164 samples @00:18:71-00:18:72,00:24:50-00:24:51,00:25:29,00:27:40-00:27:41,00:27:58-00:27:59,00:28:19,00:28:37,00:28:55,00:28:73,00:29:15-00:29:16,00:29:33-00:29:34,00:29:69-00:29:70,00:30:12,00:30:30,00:30:48,00:31:09,00:31:27,00:31:44-00:31:45,00:32:41,00:33:19-00:33:20,00:33:56,00:34:70-00:34:71,00:35:13,00:37:24-00:37:25
 11   | (283/285) Accurately ripped
 12   | (280/285) Accurately ripped
 13   | (280/285) Accurately ripped
 14   | (281/285) Accurately ripped
If you are sure that your rip contains errors, you can use CUETools to repair it.


==== Log checksum DFB01D6AA2C1CCFBA873854B9C45DBAF7EF592ADF001459857E170B2EC750561 ====
														


Erweiterte Suche

# A B C D E F G H I J K L M N O P Q R S T U V W X Y Z

Alben / Sampler (5.308)
Tapes (712)
Vinyl (269)
Maxi's / EP's (1.083)
Promos (148)
Tracks & Snippet (1.062)
Diss Tracks (123)
Acapellas (77)
Instrumentals (797)
Full Instrumentals (48)
Live / Radio (160)
Video Clips (743)
Juice (82)
Remixe (7)

Alben / Tapes (305)
Maxis / EPs / Vinyl (57)
Tracks / Promos (17)
Diss Tracks (3)
Acapella (6)
Instrumental (18)
Video Clips (32)

Alben / Sampler (6.728)
Tapes (1.585)
Vinyl (868)
Maxi's / EP's (569)
Tracks / Promos (1.534)
Acapellas (139)
Full Acapellas (5)
Full Instrumentals (168)
Instrumentals (602)
Video Clips (487)
Live / Radio (691)

German Rap (119)
International Rap (182)
Graffiti (106)
Basketball (13)
Skateboarding (1)
Ski / Snowboarding (76)
Breakdance (22)
DJing (11)
BMX / Mountainbike (8)
Cars & Bikes (23)
Fighting & Gangs (26)
Hooligans (22)
~~~~~~~~~~~~~ (0)
- Top Kinofilme (213)
Abenteuer (48)
Action (359)
Animation (48)
Biographie (6)
Comedy (80)
Crime (18)
Dance (6)
Drama (190)
Dokumentar (276)
Eastern (8)
Fantasy (40)
Horror (254)
Kriegsfilme (18)
Komödie (242)
Musik / Konzerte (50)
Psycho (1)
Serien (357)
Sexy Babes (15)
Science Fiction (51)
Sonstiges (15)
Splatter (5)
Sport (68)
Thriller (107)
Trick & Kinderfilme (31)
Western (9)
Wrestling (87)

Movies (1.182)
Clips (726)
Pictures (347)

Gamecube (1)
PC (361)
PS2 (47)
PS3 (6)
PSP (75)
Wii (6)
Xbox (2)
Xbox 360 (18)

Audio - VST - FX (338)
Burning (18)
Converter / Ripper (9)
Grafik / Design (38)
Internet (21)
Office (6)
Portable (65)
Sicherheit (9)
Sonstiges (30)
System (31)
Templates & Scripte (0)
Tools (22)
Video (14)
Video2Brain (31)
Video Tutorials (1)
Wallpaper (13)

Software / System (25)
Hacken (13)
Rechte (12)
Drogen (31)
Musik (14)
Graffiti & Kunst (101)
PC / Games (24)
Erotik (123)
Other (25)

Alben / Sampler (1.834)
Maxi's / EP's (215)
Tracks / Promos (312)
Vinyl (138)
Live / Radio (116)
Acapellas (5)
Instrumentals (4)
Video Clips (67)
Charts (68)
Hörbücher (65)
Soundtracks (289)
Klingeltöne (42)
Sonstiges (13)

Startseite | FAQ | Board | Kontakt | RSS Feeds | Partner | Radio | Premiumzugang | Team Login

night, vollkontakt, fettrap, audrey bitoni brazzers, fattrap com, nika noire brazzers says, auf, porno mit animal zeichentrick, Xxx Teen image set, nackt, brutale fickgeschichten auf deutsch, streaming, intitle index of mkv streaming porn, txt, free, zeichentrick, htm, set, rapunzel, sexxygirl, full, automatikk, brutale, wixvorlage, upioaded to yespornpiease com, pics, vollkontakt fight club mixtape vol 1 free download, porno, noire, ponorox, verföhnt, Fettrap com, movi, anja abi nackt, sport1 late night movi, 2016, Aische, says, wixvorlage, mp4bigtits net, intitle index of "avi" "milfs" html htm php asp txt pls, index of brazzers video, fettrap, xxx, extreme, sport1, net, fight, mkvbrazzers, big, 2017, imagefap, beatrice, egli, Pervers, deutsch, killatape, ponorox full hd, club, download, avi, lohfink, mp4bigtits, avantgarde, riding, html, php, baezzer, mit, yespornpiease, audrey, bitoni, anja, Aische Pervers porn pics, sextape, abi, riding with audrey bitoni, milfs, nika, boob, late, rapunzel neu verföhnt porno, video, vol, fickgeschichten, pls, index, avantgarde extreme porn stream, fatrap com, Teen, upioaded, big boob s baezzer, animal, with, mkv, automatikk killatape 2 free download, porn xxx 2017 intitle index of mkv, lohfink sextape 2016 xxx, fattrap, asp, fatrap, brazzers, neu, beatrice egli imagefap, mkvbrazzers com, mixtape, image, sexxygirl stream, Intitle, porn, com, stream


RSS 0.91 RSS 2.0 website monitoring service IPCOUNTER.DE - Kostenloser Counter!

Powered by Underground CMS V1.7 - coded by madmax - Copyright © 2006-2008 - Fettrap.com - All Rights Reserved